miriamphotography.co.uk - The Largest Bittorent System Login   |    Register
Latest Articles
Most searched
Hot torrents
Movie Torrents
View Torrent Info: The Equalizer 2 (2018) [720p] [YTS] [YIFY]
View Torrent Info: Mile 22 (2018) [720p] [YTS] [YIFY]
View Torrent Info: The Meg (2018) [720p] [YTS] [YIFY]
View Torrent Info: Papillon (2017) [720p] [YTS] [YIFY]
View Torrent Info: A-X-L (2018) [720p] [YTS] [YIFY]
View Torrent Info: The Bombing (2018) [720p] [YTS] [YIFY]
View Torrent Info: Charming (2018) [720p] [YTS] [YIFY]
View Torrent Info: Along with the Gods: The Last 49 Days (2018) [720p] [YTS] [YIFY]
View Torrent Info: Luis & the Aliens (2018) [720p] [YTS] [YIFY]
View Torrent Info: Nun (2017) [720p] [YTS] [YIFY]
Hot torrents
TV Torrents
View Torrent Info: The.Flash.2014.S05E04.HDTV.x264-SVA[eztv]
View Torrent Info: Supergirl.S04E03.HDTV.x264-SVA[eztv]
View Torrent Info: DCs.Legends.of.Tomorrow.S04E02.HDTV.x264-SVA[eztv]
View Torrent Info: The.Walking.Dead.S09E04.HDTV.x264-KILLERS[eztv]
View Torrent Info: American.Horror.Story.S08E08.WEBRip.x264-TBS[eztv]
View Torrent Info: Arrow.S07E03.HDTV.x264-SVA[eztv]
View Torrent Info: The.Good.Doctor.S02E05.HDTV.x264-KILLERS[eztv]
View Torrent Info: the.last.ship.s05e08.webrip.x264-tbs[eztv]
View Torrent Info: The.Big.Bang.Theory.S12E07.HDTV.x264-SVA[eztv]
View Torrent Info: The.Gifted.S02E05.HDTV.x264-LucidTV[eztv]
miriamphotography.co.uk > Categories > TV torrents > Almost Human torrents


Browse TV torrents

Almost Human S01E07 HDTV 480p x264 - VYTO [P2PDL] torrent



Download torrent: Magnet link Bookmark Torrent: Almost Human S01E07 HDTV 480p x264 - VYTO [P2PDL] Download Almost Human S01E07 HDTV 480p x264 - VYTO [P2PDL] torrent (magnet link)
Info hash: 54E9CFC1124B79E7A68F30D7E3C1A6B6CE2791AC
Category: Categories > TV torrents > Almost Human torrents
Trackers:
19    View all torrent trackers >
Health:
 seeds: 0 ,  leechers: 0 |  Update >
Torrent language:  
Total Size: 140.86 MB
Torrent status: Added by trusted uploader Added by trusted uploader Trusted Uploader Site Friend Superman Sun
Uploader: Trusted Uploader Site Friend Superman Sun
 

Download Almost Human S01E07 HDTV 480p x264 - VYTO [P2PDL] via Magnet Link




Torrent Description





Almost Human S01E07 HDTV 480p x264 - VYTO


Almost Human S01E07 (Simon Says)


http://www.imdb.com/title/tt3341726/

Quote:


Det. Kennex and Dorian investigate Simon, a psychopathic killer who is strapping
bombs to his victims' neck and broadcasting their final moments over the internet.



Quote:

Format : MPEG-4
File size : 135 MiB
Duration : 42mn 29s
Overall bit rate : 446 Kbps

Video
Format : AVC
Bit rate : 403 Kbps
Width : 720 pixels
Height : 400 pixels
Display aspect ratio : 16:9
Frame rate mode : Constant
Frame rate : 23.976 fps
Bit depth : 10 bits
Stream size : 122 MiB (90%)
Writing library : x264 core 140 r2377

Audio
Format : AAC
Bit rate mode : Variable
Bit rate : 40.0 Kbps
Channel count : 2 channels
Channel positions : Front: L R
Sampling rate : 48.0 KHz
Stream size : 12.2 MiB (9%)

Subtitle : Yes (English)

Source : 720p.HDTV.X264-DIMENSION



Screenshots:













----------------------------------------------------------------------------------------------------

Quote:


Encoded using revolutionary 10bit encoding, which enables us to provide you more crispier
and sharper images at small sizes, just make sure you follow our instructions without a fault.
Recommend to you to use latest version of VLC player. Install K-Lite Codec Pack or shark007 codecs
in case of any kind of problem in playback (For non-VLC Media Player users). Alternatively, install
Core AVC codecs, the fastest decoder that there is coupled with Community Center Codec Pack and play
on Windows Media Player Classic. Check sample to be sure.
Enjoy!

Encoder Notes:Looking For Early Access To Anything You Can Provide DVDScr, R5, DVDR, BluRay, Direct
Audio, Music Releases and Seedboxes. We require dedicated servers, so as to do more
and fast releases of movies.

If You Got anything to offer please contact us at "[email protected]".










#varuttee -> To avoid fakes, ALWAYS check that the torrent was added on miriamphotography.co.uk by varuttee

http://miriamphotography.co.uk/




Comments (please add your comment)
No comments



Home - Browse Torrents - Upload Torrent - Stat - Forum - FAQ - Login
miriamphotography.co.uk is in compliance with copyrights
2006-2018 miriamphotography.co.uk
SitemapBaixar toque para celular | Adventure | Porsche Carrera 4S (997)