miriamphotography.co.uk - The Largest Bittorent System Login   |    Register
Latest Articles
Most searched
Hot torrents
Movie Torrents
View Torrent Info: Venom (2018) [720p] [YTS] [YIFY]
View Torrent Info: Smallfoot (2018) [720p] [YTS] [YIFY]
View Torrent Info: The Predator (2018) [720p] [YTS] [YIFY]
View Torrent Info: The House with a Clock in Its Walls (2018) [720p] [YTS] [YIFY]
View Torrent Info: The Bouncer (2018) [720p] [YTS] [YIFY]
View Torrent Info: Blood Brother (2018) [720p] [YTS] [YIFY]
View Torrent Info: Swiped (2018) [720p] [YTS] [YIFY]
View Torrent Info: The Immortal Wars (2018) [720p] [YTS] [YIFY]
View Torrent Info: Elliot the Littlest Reindeer (2018) [720p] [YTS] [YIFY]
View Torrent Info: [Cargo] (2018) [720p] [YTS] [YIFY]
Hot torrents
TV Torrents
View Torrent Info: The.Flash.2014.S05E07.HDTV.x264-SVA[eztv]
View Torrent Info: Arrow.S07E07.HDTV.x264-SVA[eztv]
View Torrent Info: DCs.Legends.of.Tomorrow.S04E06.HDTV.x264-SVA[eztv]
View Torrent Info: lethal.weapon.s03e08.web.x264-tbs[eztv]
View Torrent Info: The.Good.Doctor.S02E09.HDTV.x264-SVA[eztv]
View Torrent Info: Supergirl.S04E08.HDTV.x264-SVA[eztv]
View Torrent Info: Supernatural.S14E07.HDTV.x264-SVA[eztv]
View Torrent Info: Manifest.S01E09.HDTV.x264-KILLERS[eztv]
View Torrent Info: The.Gifted.S02E08.WEB.x264-TBS[eztv]
View Torrent Info: Legacies.S01E05.HDTV.x264-SVA[eztv]
miriamphotography.co.uk > Categories > Movies torrents > Bollywood/Desi torrents


Browse Movies torrents

Kai Po Che (2013) 720p - BDRip - [Hindi + Tamil] - x264 - 1.3GB - ESubs - MovCr torrent



Download torrent: Download Kai Po Che (2013) 720p - BDRip - [Hindi + Tamil] - x264 - 1.3GB - ESubs - MovCr torrent Magnet link Bookmark Torrent: Kai Po Che (2013) 720p - BDRip - [Hindi + Tamil] - x264 - 1.3GB - ESubs - MovCr Kai Po Che (2013) 720p - BDRip - [Hindi + Tamil] - x264 - 1.3GB - ESubs - MovCr torrent | if not working, try instead: Magnet Link
Info hash: C8B9890E13B5B861883BD8C8B2383AC0ADDE66C7
Category: Categories > Movies torrents > Bollywood/Desi torrents
Trackers:
52    View all torrent trackers >
Health:
 seeds: 6 ,  leechers: 0 |  Update >
Total Size: 1.40 GB
Torrent status: Added by trusted uploader Added by trusted uploader Trusted Uploader Site Friend Superman Sun
Uploader: Trusted Uploader Site Friend Superman Sun
Torrent added: 2018-05-15 16:47:20
 

Download Kai Po Che (2013) 720p - BDRip - [Hindi + Tamil] - x264 - 1.3GB - ESubs - MovCr torrent if not working, try downloading torrent using Download Kai Po Che (2013) 720p - BDRip - [Hindi + Tamil] - x264 - 1.3GB - ESubs - MovCr via Magnet Link




Torrent Description

http://movcr.com

Kai Po Che (2013) 720p - BDRip - [Hindi + Tamil] - x264 - 1.3GB - ESubs - MovCr


Video
ID : 1
Format : AVC
Format/Info : Advanced Video Codec
Format profile : [email protected]
Format settings, CABAC : Yes
Format settings, ReFrames : 4 frames
Codec ID : V_MPEG4/ISO/AVC
Duration : 2 h 5 min
Bit rate : 1 355 kb/s
Width : 1 280 pixels
Height : 544 pixels
Display aspect ratio : 2.35:1
Frame rate mode : Constant
Frame rate : 23.976 (24000/1001) FPS
Color space : YUV
Chroma subsampling : 4:2:0
Bit depth : 8 bits
Scan type : Progressive
Bits/(Pixel*Frame) : 0.081
Stream size : 1.19 GiB (87%)
Title : www.MovCr.com
Writing library : x264 core 148 r2744 b97ae06
Encoding settings : cabac=1 / ref=3 / deblock=1:0:0 / analyse=0x3:0x113 / me=hex / subme=7 / psy=1 / psy_rd=1.00:0.00 / mixed_ref=1 / me_range=16 / chroma_me=1 / trellis=1 / 8x8dct=1 / cqm=0 / deadzone=21,11 / fast_pskip=1 / chroma_qp_offset=-2 / threads=17 / lookahead_threads=2 / sliced_threads=0 / nr=0 / decimate=1 / interlaced=0 / bluray_compat=0 / constrained_intra=0 / bframes=3 / b_pyramid=2 / b_adapt=1 / b_bias=0 / direct=1 / weightb=1 / open_gop=0 / weightp=2 / keyint=240 / keyint_min=23 / scenecut=40 / intra_refresh=0 / rc_lookahead=40 / rc=2pass / mbtree=1 / bitrate=1355 / ratetol=1.0 / qcomp=0.60 / qpmin=0 / qpmax=69 / qpstep=4 / cplxblur=20.0 / qblur=0.5 / ip_ratio=1.40 / aq=1:1.00
Language : English
Default : Yes
Forced : No

Audio #1
ID : 2
Format : MPEG Audio
Format version : Version 1
Format profile : Layer 3
Mode : Joint stereo
Mode extension : MS Stereo
Codec ID : A_MPEG/L3
Codec ID/Hint : MP3
Duration : 2 h 5 min
Bit rate mode : Constant
Bit rate : 96.0 kb/s
Channel(s) : 2 channels
Sampling rate : 48.0 kHz
Frame rate : 41.667 FPS (1152 spf)
Compression mode : Lossy
Stream size : 86.2 MiB (6%)
Title : www.MovCr.com
Writing library : LAME3.99YB4êƃ59“‰
Language : Hindi
Default : Yes
Forced : No

Audio #2
ID : 3
Format : MPEG Audio
Format version : Version 1
Format profile : Layer 3
Mode : Joint stereo
Mode extension : MS Stereo
Codec ID : A_MPEG/L3
Codec ID/Hint : MP3
Duration : 2 h 5 min
Bit rate mode : Constant
Bit rate : 96.0 kb/s
Channel(s) : 2 channels
Sampling rate : 44.1 kHz
Frame rate : 38.281 FPS (1152 spf)
Compression mode : Lossy
Stream size : 86.2 MiB (6%)
Title : www.MovCr.com
Language : Tamil
Default : No
Forced : No

Text
ID : 4
Format : UTF-8
Codec ID : S_TEXT/UTF8
Codec ID/Info : UTF-8 Plain Text
Duration : 2 h 0 min
Bit rate : 48 b/s
Count of elements : 1514
Stream size : 42.5 KiB (0%)
Title : www.MovCr.com
Language : English
Default : No
Forced : No





#MovCr -> To avoid fakes, ALWAYS check that the torrent was added on miriamphotography.co.uk by MovCr

http://miriamphotography.co.uk/



Download Kai Po Che (2013) 720p - BDRip - [Hindi + Tamil] - x264 - 1.3GB - ESubs - MovCr torrent


Comments (please add your comment)
No comments



Home - Browse Torrents - Upload Torrent - Stat - Forum - FAQ - Login
miriamphotography.co.uk is in compliance with copyrights
2006-2018 miriamphotography.co.uk
SitemapOne Piece 389 | Kill Me Three Times (Kill Me Three Times) 2014 | GET IT NOW