miriamphotography.co.uk - The Largest Bittorent System Login   |    Register
Latest Articles
Most searched
Hot torrents
Movie Torrents
View Torrent Info: Venom (2018) [720p] [YTS] [YIFY]
View Torrent Info: The Predator (2018) [720p] [YTS] [YIFY]
View Torrent Info: The House with a Clock in Its Walls (2018) [720p] [YTS] [YIFY]
View Torrent Info: [Cargo] (2018) [720p] [YTS] [YIFY]
View Torrent Info: The Immortal Wars (2018) [720p] [YTS] [YIFY]
View Torrent Info: Mrs. Claus (2018) [720p] [YTS] [YIFY]
View Torrent Info: Dead in a Week: Or Your Money Back (2018) [720p] [YTS] [YIFY]
View Torrent Info: The Fortress (2017) [720p] [YTS] [YIFY]
View Torrent Info: They Shall Not Grow Old (2018) [720p] [YTS] [YIFY]
View Torrent Info: The Dawn Wall (2017) [720p] [YTS] [YIFY]
Hot torrents
TV Torrents
View Torrent Info: The.Flash.2014.S05E07.HDTV.x264-SVA[eztv]
View Torrent Info: The.Walking.Dead.S09E08.HDTV.x264-SVA[eztv]
View Torrent Info: Arrow.S07E07.HDTV.x264-SVA[eztv]
View Torrent Info: Supergirl.S04E07.HDTV.x264-SVA[eztv]
View Torrent Info: DCs.Legends.of.Tomorrow.S04E06.HDTV.x264-SVA[eztv]
View Torrent Info: lethal.weapon.s03e08.web.x264-tbs[eztv]
View Torrent Info: The.Good.Doctor.S02E09.HDTV.x264-SVA[eztv]
View Torrent Info: Supernatural.S14E07.HDTV.x264-SVA[eztv]
View Torrent Info: Manifest.S01E09.HDTV.x264-KILLERS[eztv]
View Torrent Info: The.Gifted.S02E08.WEB.x264-TBS[eztv]
miriamphotography.co.uk > Categories > Movies torrents > h.264/x264 torrents


Browse Movies torrents

Pizza 3 (2018) 720p HDRip [Telugu + Tamil] x264 AC3 by india4movie torrent



Download torrent: Download Pizza 3 (2018) 720p HDRip [Telugu + Tamil] x264 AC3 by india4movie torrent Magnet link Bookmark Torrent: Pizza 3 (2018) 720p HDRip [Telugu + Tamil] x264 AC3 by india4movie Pizza 3 (2018) 720p HDRip [Telugu + Tamil] x264 AC3 by india4movie torrent | if not working, try instead: Magnet Link
Info hash: F80B5188664F5BB088A6D4C9FC0EFAD187A89508
Category: Categories > Movies torrents > h.264/x264 torrents
Trackers:
15    View all torrent trackers >
Health:
 seeds: 0 ,  leechers: 0 |  Update >
Total Size: 1.30 GB
Torrent status: Added by trusted uploader Added by trusted uploader Trusted Uploader Site Friend Superman Sun
Uploader: Trusted Uploader Site Friend Superman Sun
Torrent added: 2018-05-26 21:31:09
 

Download Pizza 3 (2018) 720p HDRip [Telugu + Tamil] x264 AC3 by india4movie torrent if not working, try downloading torrent using Download Pizza 3 (2018) 720p HDRip [Telugu + Tamil] x264 AC3 by india4movie via Magnet Link




Torrent Description



General
Complete name : Pizza 3 (2018) 720p HDRip [Telugu + Tamil] x264 AC3 by india4movie.mkv
Format : Matroska
Format version : Version 4 / Version 2
File size : 1.31 GiB
Duration : 2 h 14 min
Overall bit rate mode : Variable
Overall bit rate : 1 403 kb/s
Movie name : Pizza 3 (2018)
Encoded date : UTC 2018-05-26 17:21:22
Writing application : mkvmerge v8.1.0 ('Psychedelic Postcard') 32bit
Writing library : libebml v1.3.1 + libmatroska v1.4.2

Video
ID : 1
Format : AVC
Format/Info : Advanced Video Codec
Format profile : [email protected]
Format settings, CABAC : Yes
Format settings, RefFrames : 4 frames
Codec ID : V_MPEG4/ISO/AVC
Duration : 2 h 14 min
Bit rate : 1 242 kb/s
Width : 1 280 pixels
Height : 544 pixels
Display aspect ratio : 2.35:1
Frame rate mode : Constant
Frame rate : 25.000 FPS
Color space : YUV
Chroma subsampling : 4:2:0
Bit depth : 8 bits
Scan type : Progressive
Bits/(Pixel*Frame) : 0.071
Stream size : 1.16 GiB (88%)
Writing library : x264 core 155 r2901 7d0ff22
Default : Yes
Forced : No

Audio #1
ID : 2
Format : MPEG Audio
Format version : Version 1
Format profile : Layer 3
Mode : Joint stereo
Mode extension : MS Stereo
Codec ID : A_MPEG/L3
Codec ID/Hint : MP3
Duration : 2 h 14 min
Bit rate mode : Variable
Bit rate : 88.6 kb/s
Nominal bit rate : 96.0 kb/s
Channel(s) : 2 channels
Sampling rate : 48.0 kHz
Frame rate : 41.667 FPS (1152 SPF)
Compression mode : Lossy
Stream size : 85.0 MiB (6%)
Writing library : LAME3.99r
Encoding settings : -m j -V 4 -q 3 -lowpass 15.1 --abr 96
Language : Telugu
Default : Yes
Forced : No

Audio #2
ID : 3
Format : MPEG Audio
Format version : Version 1
Format profile : Layer 3
Mode : Joint stereo
Mode extension : MS Stereo
Codec ID : A_MPEG/L3
Codec ID/Hint : MP3
Duration : 2 h 14 min
Bit rate mode : Variable
Bit rate : 70.0 kb/s
Nominal bit rate : 64.0 kb/s
Channel(s) : 2 channels
Sampling rate : 48.0 kHz
Frame rate : 41.667 FPS (1152 SPF)
Compression mode : Lossy
Stream size : 67.2 MiB (5%)
Writing library : LAME3.99r
Encoding settings : -m j -V 4 -q 3 -lowpass 11 --abr 64
Language : Tamil
Default : No
Forced : No

Screen Shoots



#shmasti -> To avoid fakes, ALWAYS check that the torrent was added on miriamphotography.co.uk by shmasti

http://miriamphotography.co.uk/



Download Pizza 3 (2018) 720p HDRip [Telugu + Tamil] x264 AC3 by india4movie torrent


Comments (please add your comment)
No comments



Home - Browse Torrents - Upload Torrent - Stat - Forum - FAQ - Login
miriamphotography.co.uk is in compliance with copyrights
2006-2018 miriamphotography.co.uk
SitemapBig Green Egg Large | PDA Accessories | 14.04.1804:44 Uhr VA - Spring Lounge 2018 Sounds Like Sunshine Ambient320 kbit/s 0 / 02.418 Hits VID P2P DDL 0 Kommentare